| Search | Login/Register
   Home » Didital Things » High Quality Music Server / CD player (166 posts, 9 pages)
  Print Thread | 1st Post |  
Page 9 of 9 (166 items) Select Pages:  « First ... « 5 6 7 8 9
   Target    Threads for related reading   Most recent post in related threads   Forum  Replies   Views   Started 
  »  New  The commercial music servers...  Touch screen remote...  Didital Things  Forum     37  264693  01-10-2008
  »  New  About the DAW playback software...  Best hardware with best software...  Didital Things  Forum     11  79055  03-22-2008
  »  New  Recording/Playback software..  Free stuff...  Didital Things  Forum     14  73162  08-24-2008
  »  New  To Rip or not to Rip...  Ripping with better playback...  Didital Things  Forum     2  25555  03-18-2009
  »  New  The contra-ridicules solution for a good DAW?..  Happy to see this thread...  Didital Things  Forum     1  24349  06-18-2009
  »  New  DAW drives configuration and backup strategies...  Not expensive to recover DATA, avoid Corporate Recovery...  Didital Things  Forum     3  29424  10-05-2009
  »  New  Weiss Engineering DAC202..  Attenuation...  Didital Things  Forum     5  36850  06-21-2010
  »  New  Pacific Microsonics Model Two: What Platform, Software ..  XLR to RCA adaptor. Watch out...  Didital Things  Forum     1  19731  03-17-2011
  »  New  Windows Based Transport: A quiet and capable Source?..  DAE Firmware quality...  Didital Things  Forum     47  203597  11-01-2011
  »  New  Memory Player Box?..  Maybe I will not order the Pure Teflon capacitors after...  Didital Things  Forum     2  36126  11-03-2011
  »  New  Why I hate computer playback...  Higher power cpu...  Didital Things  Forum     17  89727  04-16-2012
06-07-2018 Post does not mapped to Knowledge Tree
xandcg


Rio de Janeiro, BR.
Posts 181
Joined on 09-07-2014

Post #: 161
Post ID: 24922
Reply to: 24829
AES67
Hi.

Anyone in here have experience with AES67 (aka RAVENNA) interfaces? This kind of networked interface are getting a lot of traction on the pro-market.

I am particulary interested on the Merging HAPI.


Thanks!



Think for yourself, do not be sheep.
09-09-2018 Post does not mapped to Knowledge Tree
Amir
Iran Tehran
Posts 221
Joined on 02-11-2009

Post #: 164
Post ID: 25094
Reply to: 25024
Dbpoweramp Ripping vary by different reading passes
my experience in ripping audio CD with dbpoweramp shows even in ultra Secure mode we get different result with different number of passes.



the result in 3 different passes :the CD was in good condition but it has little scratch .
=========================================================================================










dBpoweramp  Digital Audio Extraction Log from 2018-09:06 10:02:07
Drive & Settings----------------
Ripping with drive 'disk3   [HL-DT-ST - DVDRW  GX50N]',  Drive offset: 6,  Overread Lead-in/out: YesAccurateRip: Off,  Using C2: Yes,  Cache: 1024 KB,  FUA Cache Invalidate: NoPass 1 Drive Speed: Max,  Pass 2 Drive Speed: MaxUltra::  Vary Drive Speed: No,  Min Passes: 2,  Max Passes: 4,  Finish After Clean Passes: 2Bad Sector Re-rip::  Drive Speed: Max,  Maximum Re-reads: 3
Encoder: AIFF 
Extraction Log--------------
Track 1:  Ripped LBA 0 to 48997 (10:53) in 12:01. Filename: /Drive D Windows/AIFF/AIFF 16-44 Rip/Homayoun Khorram 1 Taknavazi Violon Navaye Homayoun OLD/01  - Track 1.aiff  Secure  [Pass 1, Ultra 1 to 2]  CRC32: F808C94F
Track 2:  Ripped LBA 48997 to 112629 (14:08) in 22:32. Filename: /Drive D Windows/AIFF/AIFF 16-44 Rip/Homayoun Khorram 1 Taknavazi Violon Navaye Homayoun OLD/02  - Track 2.aiff  Secure  [Pass 1, Ultra 1 to 2]  CRC32: 31855818
Track 3:  Ripped LBA 112629 to 175742 (14:01) in 23:08. Filename: /Drive D Windows/AIFF/AIFF 16-44 Rip/Homayoun Khorram 1 Taknavazi Violon Navaye Homayoun OLD/03  - Track 3.aiff  Secure  [Pass 1, Ultra 1 to 2]  CRC32: 21C90611
Track 4:  Ripped LBA 175742 to 223547 (10:37) in 18:41. Filename: /Drive D Windows/AIFF/AIFF 16-44 Rip/Homayoun Khorram 1 Taknavazi Violon Navaye Homayoun OLD/04  - Track 4.aiff  Insecure  [Pass 1, Ultra 1 to 2, Re-Rip 3 Frames]  CRC32: 1E1D012A    Re-rip Frame: 222167 (00:10:19.000). Insecure  (c2 dropped 2) [c2 best match]    Re-rip Frame: 222168 (00:10:19.013). Insecure  (c2 dropped 3) [c2 best match]    Re-rip Frame: 222806 (00:10:27.520) matched 10 / 11
Track 5:  Ripped LBA 223547 to 308527 (18:53) in 30:55. Filename: /Drive D Windows/AIFF/AIFF 16-44 Rip/Homayoun Khorram 1 Taknavazi Violon Navaye Homayoun OLD/05  - Track 5.aiff  Secure  [Pass 1, Ultra 1 to 2]  CRC32: FA47C164  ** Drive is unable to read into lead out, uncheck over-read option.  ** Drive is unable to read into lead out, uncheck over-read option.  ** Drive is unable to read into lead out, uncheck over-read option.
--------------
5 Tracks Ripped: 4 Secure, 1 Inaccurate

=========================================================================================










dBpoweramp  Digital Audio Extraction Log from 2018-09:08 09:44:44
Drive & Settings----------------
Ripping with drive 'disk3   [HL-DT-ST - DVDRW  GX50N]',  Drive offset: 6,  Overread Lead-in/out: YesAccurateRip: Off,  Using C2: Yes,  Cache: 1024 KB,  FUA Cache Invalidate: NoPass 1 Drive Speed: Max,  Pass 2 Drive Speed: MaxUltra::  Vary Drive Speed: No,  Min Passes: 3,  Max Passes: 5,  Finish After Clean Passes: 3Bad Sector Re-rip::  Drive Speed: Max,  Maximum Re-reads: 3
Encoder: AIFF 
Extraction Log--------------



dBpoweramp  Digital Audio Extraction Log from 2018-09:08 09:46:35
Drive & Settings----------------
Ripping with drive 'disk3   [HL-DT-ST - DVDRW  GX50N]',  Drive offset: 6,  Overread Lead-in/out: YesAccurateRip: Off,  Using C2: Yes,  Cache: 1024 KB,  FUA Cache Invalidate: NoPass 1 Drive Speed: Max,  Pass 2 Drive Speed: MaxUltra::  Vary Drive Speed: No,  Min Passes: 3,  Max Passes: 5,  Finish After Clean Passes: 3Bad Sector Re-rip::  Drive Speed: Max,  Maximum Re-reads: 4
Encoder: AIFF 
Extraction Log--------------
Track 1:  Ripped LBA 0 to 48997 (10:53) in 5:21. Filename: /Drive D Windows/AIFF/AIFF 16-44 Rip/Homayoun Khorram 1 Taknavazi Violon Navaye Homayoun OLD/01  - Track 1.aiff  Secure  [Pass 1, Ultra 1 to 3]  CRC32: F808C94F
Track 2:  Ripped LBA 48997 to 112629 (14:08) in 6:57. Filename: /Drive D Windows/AIFF/AIFF 16-44 Rip/Homayoun Khorram 1 Taknavazi Violon Navaye Homayoun OLD/02  - Track 2.aiff  Secure  [Pass 1, Ultra 1 to 3]  CRC32: 31855818
Track 3:  Ripped LBA 112629 to 175742 (14:01) in 7:02. Filename: /Drive D Windows/AIFF/AIFF 16-44 Rip/Homayoun Khorram 1 Taknavazi Violon Navaye Homayoun OLD/03  - Track 3.aiff  Secure  [Pass 1, Ultra 1 to 3]  CRC32: 21C90611
Track 4:  Ripped LBA 175742 to 223547 (10:37) in 6:20. Filename: /Drive D Windows/AIFF/AIFF 16-44 Rip/Homayoun Khorram 1 Taknavazi Violon Navaye Homayoun OLD/04  - Track 4.aiff  Insecure  [Pass 1, Ultra 1 to 3, Re-Rip 8 Frames]  CRC32: 1E1D012A    Re-rip Frame: 185719 (00:02:13.026) matched 10 / 11    Re-rip Frame: 214884 (00:08:41.893). Insecure  (c2 dropped 8) [c2 best match]    Re-rip Frame: 221942 (00:10:16.000) matched 10 / 11  (c2 dropped 2)    Re-rip Frame: 222167 (00:10:19.000). Insecure  (c2 dropped 4) [c2 best match]    Re-rip Frame: 222168 (00:10:19.013). Insecure  (c2 dropped 7) [c2 best match]    Re-rip Frame: 222581 (00:10:24.520) matched 10 / 11    Re-rip Frame: 222713 (00:10:26.280). Insecure  (c2 dropped 1) [c2 best match]    Re-rip Frame: 223484 (00:10:36.560). Insecure  (c2 dropped 9) [c2 best match]
Track 5:  Ripped LBA 223547 to 308527 (18:53) in 10:08. Filename: /Drive D Windows/AIFF/AIFF 16-44 Rip/Homayoun Khorram 1 Taknavazi Violon Navaye Homayoun OLD/05  - Track 5.aiff  Insecure  [Pass 1, Ultra 1 to 3, Re-Rip 4 Frames]  CRC32: FA47C164  ** Drive is unable to read into lead out, uncheck over-read option.  ** Drive is unable to read into lead out, uncheck over-read option.  ** Drive is unable to read into lead out, uncheck over-read option.  ** Drive is unable to read into lead out, uncheck over-read option.    Re-rip Frame: 224709 (00:00:15.493). Insecure  (c2 dropped 2) [c2 best match]    Re-rip Frame: 224710 (00:00:15.506). Insecure  (c2 dropped 3) [c2 best match]    Re-rip Frame: 225729 (00:00:29.093) matched 10 / 11    Re-rip Frame: 225730 (00:00:29.106) matched 10 / 11
--------------
5 Tracks Ripped: 3 Secure, 2 Inaccurate

=========================================================================================










Bpoweramp  Digital Audio Extraction Log from 2018-09:08 10:35:32
Drive & Settings----------------
Ripping with drive 'disk3   [HL-DT-ST - DVDRW  GX50N]',  Drive offset: 6,  Overread Lead-in/out: YesAccurateRip: Off,  Using C2: Yes,  Cache: 1024 KB,  FUA Cache Invalidate: NoPass 1 Drive Speed: Max,  Pass 2 Drive Speed: MaxUltra::  Vary Drive Speed: No,  Min Passes: 8,  Max Passes: 10,  Finish After Clean Passes: 8Bad Sector Re-rip::  Drive Speed: Max,  Maximum Re-reads: 15
Encoder: AIFF 
Extraction Log--------------
Track 1:  Ripped LBA 0 to 48997 (10:53) in 11:54. Filename: /Drive D Windows/AIFF/AIFF 16-44 Rip/Homayoun Khorram 1 Taknavazi Violon Navaye Homayoun OLD Bad Ripped/01  - Track 1.aiff  Secure  [Pass 1, Ultra 1 to 8]  CRC32: F808C94F
Track 2:  Ripped LBA 48997 to 112629 (14:08) in 15:45. Filename: /Drive D Windows/AIFF/AIFF 16-44 Rip/Homayoun Khorram 1 Taknavazi Violon Navaye Homayoun OLD Bad Ripped/02  - Track 2.aiff  Secure (Warning)  [Pass 1, Ultra 1 to 8, Re-Rip 1 Frames]  CRC32: 31855818    Re-rip Frame: 84665 (00:07:55.573) matched 10 / 11
Track 3:  Ripped LBA 112629 to 175742 (14:01) in 54:43. Filename: /Drive D Windows/AIFF/AIFF 16-44 Rip/Homayoun Khorram 1 Taknavazi Violon Navaye Homayoun OLD Bad Ripped/03  - Track 3.aiff  Secure (Warning)  [Pass 1, Ultra 1 to 8, Re-Rip 2 Frames]  CRC32: 21C90611    Re-rip Frame: 117101 (00:00:59.626) matched 10 / 11    Re-rip Frame: 122074 (00:02:05.933) matched 10 / 11
Track 4:  Ripped LBA 175742 to 223547 (10:37) in 54:59. Filename: /Drive D Windows/AIFF/AIFF 16-44 Rip/Homayoun Khorram 1 Taknavazi Violon Navaye Homayoun OLD Bad Ripped/04  - Track 4.aiff  Insecure  [Pass 1, Ultra 1 to 8, Re-Rip 5 Frames]  CRC32: 1E1D012A    Re-rip Frame: 214884 (00:08:41.893) matched 10 / 12  (c2 dropped 1)    Re-rip Frame: 222167 (00:10:19.000) matched 10 / 11  (c2 dropped 3)    Re-rip Frame: 222168 (00:10:19.013) matched 10 / 11  (c2 dropped 1)    Re-rip Frame: 222713 (00:10:26.280) matched 10 / 11  (c2 dropped 1)    Re-rip Frame: 223484 (00:10:36.560). Insecure  (c2 dropped 9) [c2 best match]
Track 5:  Ripped LBA 223547 to 308527 (18:53) in 1:35:04. Filename: /Drive D Windows/AIFF/AIFF 16-44 Rip/Homayoun Khorram 1 Taknavazi Violon Navaye Homayoun OLD Bad Ripped/05  - Track 5.aiff  Secure (Warning)  [Pass 1, Ultra 1 to 8, Re-Rip 2 Frames]  CRC32: FA47C164  ** Drive is unable to read into lead out, uncheck over-read option.  ** Drive is unable to read into lead out, uncheck over-read option.  ** Drive is unable to read into lead out, uncheck over-read option.  ** Drive is unable to read into lead out, uncheck over-read option.  ** Drive is unable to read into lead out, uncheck over-read option.  ** Drive is unable to read into lead out, uncheck over-read option.  ** Drive is unable to read into lead out, uncheck over-read option.  ** Drive is unable to read into lead out, uncheck over-read option.  ** Drive is unable to read into lead out, uncheck over-read option.    Re-rip Frame: 226203 (00:00:35.413) matched 10 / 11    Re-rip Frame: 242576 (00:04:13.720) matched 10 / 11
--------------
5 Tracks Ripped: 1 Secure, 3 Secure (Warning), 1 Inaccurate
09-09-2018 Post does not mapped to Knowledge Tree
Amir
Iran Tehran
Posts 221
Joined on 02-11-2009

Post #: 165
Post ID: 25095
Reply to: 25094
Accuracy
my experience in ripping by dbpoweramp and apple super drive:
if the disc be 100% OK (100% healthy production in press factory ) with no scratch then the ripped data will not vary by more "reading passes" or "slower reading".
It seems healthy disc could be ripped OK .
if production quality of disc in factory be bad or you find some scratches on the disk then the ripping data vary by reading speed or by number of reading passes.
09-09-2018 Post does not mapped to Knowledge Tree
dedobot
Posts 8
Joined on 08-25-2018

Post #: 166
Post ID: 25097
Reply to: 25095
EAC, CD/DVD drive
Try EAC, it have more detailed setting/logs.Also the CD/DVD drive is very important - I had a chance to test/choose from 20+ drives from my work. Completely different results . Picked one with less errors on scratched discs .
Page 9 of 9 (166 items) Select Pages:  « First ... « 5 6 7 8 9
   Target    Threads for related reading   Most recent post in related threads   Forum  Replies   Views   Started 
  »  New  The commercial music servers...  Touch screen remote...  Didital Things  Forum     37  264693  01-10-2008
  »  New  About the DAW playback software...  Best hardware with best software...  Didital Things  Forum     11  79055  03-22-2008
  »  New  Recording/Playback software..  Free stuff...  Didital Things  Forum     14  73162  08-24-2008
  »  New  To Rip or not to Rip...  Ripping with better playback...  Didital Things  Forum     2  25555  03-18-2009
  »  New  The contra-ridicules solution for a good DAW?..  Happy to see this thread...  Didital Things  Forum     1  24349  06-18-2009
  »  New  DAW drives configuration and backup strategies...  Not expensive to recover DATA, avoid Corporate Recovery...  Didital Things  Forum     3  29424  10-05-2009
  »  New  Weiss Engineering DAC202..  Attenuation...  Didital Things  Forum     5  36850  06-21-2010
  »  New  Pacific Microsonics Model Two: What Platform, Software ..  XLR to RCA adaptor. Watch out...  Didital Things  Forum     1  19731  03-17-2011
  »  New  Windows Based Transport: A quiet and capable Source?..  DAE Firmware quality...  Didital Things  Forum     47  203597  11-01-2011
  »  New  Memory Player Box?..  Maybe I will not order the Pure Teflon capacitors after...  Didital Things  Forum     2  36126  11-03-2011
  »  New  Why I hate computer playback...  Higher power cpu...  Didital Things  Forum     17  89727  04-16-2012
Home Page  |  Last 24Hours  | Search  |  SiteMap  | Questions or Problems | Copyright Note
The content of all messages within the Forums Copyright © by authors of the posts